Lo Que Te Voy A Decir . Dicen (tradução) Jarabe de Palo Um Metro Cuadrado. Jarabe de Palo. Los Ángeles Visten De Blanco. Déjame Vivir. Agua. × Dicen By Jarabe De Palo. Humo. La Flaca is the debut album by the Spanish Latin rock group Jarabe de Palo, released in 1996. Falam que é assim. We and our partners use cookies to personalize your experience, to show you ads based on your interests, and for measurement and analytics purposes. Besos En El Ascensor. La Flaca. We currently don't have any genres associated with this song. 4:17 0:30. Grita. Duerme Conmigo. Depende. exibições 4.374. Background information; Origin: Montanuy, Spain: Genres: Spanish rock: Years active: 1996-2020: Labels: Virgin, Tronco: Website: JarabeDePalo.com : Past members: Pau Donés; David Muñoz; Alex Tenas; Jordi Vericat; Jaime Burgos; Jimmy Jenks Jimenez; This article relies too much on references to primary sources. Dicen que venimos al mundo a sufrir Que la vida es un engaño Que si juegas tienes que jugar a ganar Que eres lo que tienes Y tienes lo que mereces Vives, ganas, pierdes Dicen que es así. Hoy No Soy Yo. Dicen. Immediately after its release, the album obtained a poor commercial reception, selling only 12,000 copies within seven months. DICEN es una canción de Jarabe De Palo del año 2004, este tema está incluido dentro del disco Un metro cuadrado. E tem o que merece. Completo Incompleto. Dicen. Você vive, ganha, perde. Adios. The album was produced by Joe Dworniak for Virgin Records España. Dos Dias En La Vida. Eso Que Tú Medas. Que você é o que tem. Jarabe de Palo in concert in 2005. Falam que estamos neste mundo para sofrer. La Luz De Tu Corazon. Dicen, a song by Jarabe De Palo on Spotify. El Lado Oscuro. Que se for jogar tem que jogar para ganhar. We found 34 Jarabe De Palo songs on chords and tabs. Que a vida é uma enganação. Las Cruces De Tijuana. Falam que não temos nada para descubrir. Compartilhar no Facebook Compartilhar no Twitter. LETRA 'Dicen' Dicen que venimos al mundo a sufrir que la vida es un engaño que si juegas tienes que jugar a ganar que eres lo que tienes y tienes lo que mereces vives, ganas, pierdes dicen que es así. Eso Que Tú Me Das. Bonito. 2004 • 1 song, 4:17. 1. Would you like to contribute? Dicen Jarabe de Palo. TITLE "Dicen" PERFORMER "Jarabe de Palo" REM COMPOSER "" FLAGS DCP INDEX 01 03:06:61 TRACK 03 AUDIO TITLE "Me gusta como eres" PERFORMER "Jarabe de Palo" REM COMPOSER "" FLAGS DCP INDEX 01 06:25:17 TRACK 04 AUDIO TITLE "Completo incompleto" PERFORMER "Jarabe de Palo" REM COMPOSER "" FLAGS DCP INDEX 01 10:17:39 TRACK 05 AUDIO TITLE "El lado oscuro" PERFORMER "Jarabe de Palo… By using our website and our services, you agree to our use of cookies as described in our Cookie Policy. Dicen. Play on Spotify. Dicen. Que tudo está inventado . Song information for Dicen - Jarabe de Palo on AllMusic. Que só existe um caminho criado para nós.
2020 dicen jarabe de palo